โหลดบิทฟรี | โหลดหนังใหม่ 2014 | โหลดเพลงใหม่  2014 | โหลดหนังไฮเดฟ | DOWNLOAD HIDEF BLURAY | ดูหนังออนไลน์ | Download1Link| ดาวน์โหลดวีไอพี

 ลืมรหัสผ่าน
 สมัครสมาชิก
ค้นหา
เข้าชม: 1594|ตอบกลับ: 0

[ฝรั่ง - ใหม่ - ชนโรงอย่างจัง] Pacific Rim - สงครามอสูรเหล็ก [พากย์ไทยโรงเท่านั้   [คัดลอกลิงค์นี้เพื่อนำไปแบ่งปัน]

admin โพสต์เมื่อ 17-7-2013 12:45:49 |แสดงทั้งหมด
Magicberry Magicberry
Magicberry PM



ชื่อภาษาไทย : แปซิฟิก ริม สงครามอสูรเหล็ก (Pacific Rim)
  จัดจำหน่ายโดย : Warner Bros
  วันที่เข้าฉาย : 11 กรกฎาคม 2556

ประเภทหนัง : Action, Adventure, Sci-Fi
ผู้กำกับ : Guillermo del Toro
บทภาพยนตร์ : Travis Beacham
นักแสดงนำ : Idris Elba, Charlie Hunnam, Rinko Kikuchi



    Pacific Rim เป็นเรื่องราวเกี่ยวกับ เมื่อกองทัพสัตว์ประหลาดที่โหดร้ายในนามของ ไคจู อุบัติขึ้นมาจากทะเล จึงเกิดสงครามที่คร่าชีวิตคนนับล้านและทำลายทรัพยากรของมนุษย์มานานหลายปี  ในการต่อสู้กับสัตว์ประหลาดตัวยักษ์ ไคจู
ทำให้ต้องมีการประดิษฐ์คิดค้นอาวุธพิเศษขึ้นมา: หุ่นยนต์ยักษ์ที่เรียกว่า เจเกอร์ส ซึ่งต้องควบคุมพร้อมกันโดยผู้ควบคุม 2 คน จิตของพวกเขาจะถูกเชื่อมต่อกับสะพานกระแสจิต แต่ถึงแม้เจเกอร์สจะพิสูจน์ว่าพวกเขาไม่สามารถปกป้องผู้คนให้พ้น
จากไคจูจอมอึดได้บนเส้นทางแห่งความพ่ายแพ้ กองกำลังแห่งมนุษยชาติไม่มีทางเลือก ต้องหวนไปหากลุ่มฮีโร่ที่ไม่น่าเชื่อ ทั้ง 2 คนอย่างอดีตนักบินตกอับ (ชาร์ลี ฮันแนม) และผู้ฝึกหัดที่ยังไม่ผ่านการทดสอบ (ริงโกะ คิคูชิ) ผู้ต้องมาร่วมทีมกัน
สร้างตำนานเจเกอร์สที่ตกยุคจากอดีต และพวกเขายังยืนหยัดอยู่เป็นความหวังสุดท้ายของเหล่ามวลมนุษย์ที่ต้องต่อสู้กับหายนะล้างโลกที่กำลังทวีคูณ


General
  General
   Complete name : Pacific Rim ThaiRong-Tawee1004.mkv
   Format : Matroska
   Format version : Version 4 / Version 2
   File size : 1.40 GiB
   Duration : 2h 2mn
   Overall bit rate : 1 644 Kbps
   Encoded date : UTC 2013-07-16 13:33:07
   Writing application : mkvmerge v6.3.0 ( You can t stop me! ) built on Jun 28 2013 20:09:41
   Writing library : libebml v1.3.0 + libmatroska v1.4.0
Video #1
   ID : 1
   Format : MPEG-4 Visual
   Format profile : Advanced Simple@L5
   Format settings, BVOP : Yes
   Format settings, QPel : No
   Format settings, GMC : No warppoints
   Format settings, Matrix : Default (H.263)
   Codec ID : V_MS/VFW/FOURCC / XVID
   Codec ID/Hint : XviD
   Duration : 2h 2mn
   Bit rate : 1 483 Kbps
   Width : 720 pixels
   Height : 368 pixels
   Display aspect ratio : 1.957
   Frame rate mode : Constant
   Frame rate : 29.383 fps
   Color space : YUV
   Chroma subsampling : 4:2:0
   Bit depth : 8 bits
   Scan type : Progressive
   Compression mode : Lossy
   Bits/(Pixel*Frame) : 0.191
   Stream size : 1.27 GiB (90%)
   Writing library : XviD 64
   Default : Yes
   Forced : No
Audio #2
   ID : 2
   Format : MPEG Audio
   Format version : Version 1
   Format profile : Layer 3
   Codec ID : A_MPEG/L3
   Codec ID/Hint : MP3
   Duration : 2h 2mn
   Bit rate mode : Constant
   Bit rate : 128 Kbps
   Channel(s) : 2 channels
   Sampling rate : 48.0 KHz
   Compression mode : Lossy
   Stream size : 112 MiB (8%)
   Title : ThaiRong By Tawee1004
   Writing library : LAME3.99r
   Encoding settings : -m s -V 4 -q 3 -lowpass 17 -b 128
   Language : Thai
   Default : Yes
   Forced : No



    Very Big Thank ไฟล์ต้นฉบับ Pacific Rim 2013 READNFO CAM XViD UNiQUE จากเว็ปนอก      
เสียงไทยโรง อัดเองจากมือถือ sony xperia   โมเสียงไทยโรง โดย Tawee1004 ไม่แน่ใจเสียงโรงผ่านนะครับพี่น้อง








ผู้เยี่ยมชม

.
คุณต้องเข้าสู่ระบบก่อนจึงจะสามารถตอบกลับ เข้าสู่ระบบ | สมัครสมาชิก

ปิด

เว็บมาสเตอร์แนะนำ

เปิดโหลดแล้วแอพแอนดรอยด์วีไอพี ... ...
เปิดโหลดแล้วแอพแอนดรอยด์วีไอพี ... ...
แอพดูหนังออนไลน์ครบทุกหมวดหมู่ทั้งหนังธรรมดาและ18+
หนังทุกเรื่องรันจากเซิร์ฟเวอร์โดยตรง ไม่ใช่จาก Yoytube หรือ Google Plus หรือแบบดูออนไลน์ทั่วไป
รองรับการเล่นแบบเต็มจอ ผ่านเครื่องเล่นบนเครื่องของคุณ แบบสมูท (ไม่กระตุก) ผ่าน Mxplayer Esplayer หรือ Video Player
ไม่มีโฆษณากวนใจ หนังทุกเรื่องเลือกดาวน์โหลดหรือดูออนไลน์ได้อัตโนมัติ
มีตัวอย่างให้รับชมครบทุกหมวดก่อนตัดสินใจ....
อัพเดทไว!! ทันใจแน่นอน แอพทำงานไวกว่าบราวเซอร์ 50%

ดู »

รูปแบบข้อความล้วน|โหลดบิทฟรี | โหลดหนังใหม่ 2014 | โหลดเพลงใหม่ 2014 | โหลดหนังไฮเดฟ | DOWNLOAD HIDEF BLURAY | ดูหนังออนไลน์ | Download1Link| ดาวน์โหลดวีไอพี

GMT+7, 17-4-2014 01:23 , Processed in 0.051052 second(s), 13 queries .

Powered by Discuz! X2

© 2001-2011 Comsenz Inc. Thai Language by DiscuzThai.com

TOP